<?xml version="1.0" standalone="no"?>
<!DOCTYPE svg PUBLIC "-//W3C//DTD SVG 1.1//EN" "http://www.w3.org/Graphics/SVG/1.1/DTD/svg11.dtd">
<svg xmlns="http://www.w3.org/2000/svg">
<defs >
<font id="DMSans" horiz-adv-x="573" ><font-face
    font-family="DM Sans"
    units-per-em="1000"
    panose-1="0 0 0 0 0 0 0 0 0 0"
    ascent="992"
    descent="-310"
    alphabetic="0" />
<glyph unicode=" " glyph-name="space" horiz-adv-x="238" />
<glyph unicode="!" glyph-name="exclam" horiz-adv-x="296" d="M92 221L78 700H215L200 221H92ZM149 -7Q113 -7 91 15T68 68Q68 100 90 122T149 144Q183 144 205 122T228 68Q228 37 206 15T149 -7Z" />
<glyph unicode="&quot;" glyph-name="quotedbl" horiz-adv-x="348" d="M211 546L199 755H309L298 546H211ZM50 546L39 755H149L137 546H50Z" />
<glyph unicode="#" glyph-name="numbersign" horiz-adv-x="860" d="M140 0L177 175H33V290H202L233 436H86V551H258L295 723H415L378 551H568L605 723H725L689 551H819V436H664L633 290H766V175H608L571 0H450L488 175H298L261 0H140ZM322 290H512L544 436H354L322 290Z" />
<glyph unicode="$" glyph-name="dollar" horiz-adv-x="597" d="M264 -87V-10Q167 1 106 58T43 211H178Q180 171 202 141T264 100V311Q255 314 246 317T226 323Q145 351 103 395T60 512Q59 598 116 650T264 711V792H331V710Q421 701 476 648T535 510H398Q397 539
380 563T331 598V412Q339 409 347 407T363 401Q415 383 458 359T527 296T553 194Q553 142 528 97T453 23T331 -11V-87H264ZM194 521Q194 489 213 470T264 436V602Q233 596 214 575T194 521ZM417 185Q417 225 393 248T331 287V97Q371 103 394 126T417 185Z" />
<glyph unicode="%" glyph-name="percent" horiz-adv-x="872" d="M212 356Q164 356 125 377T63 439T40 534Q40 589 63 629T125 690T213 712Q261 712 299 691T361 629T384 534Q384 479 361 439T299 378T212 356ZM174 0L569 700H694L299 0H174ZM212 445Q241 445 262
467T283 534Q283 578 263 601T212 624Q182 624 162 601T141 534Q141 490 161 468T212 445ZM660 -12Q612 -12 573 9T511 71T488 166Q488 221 511 260T573 321T661 343Q709 343 747 322T809 261T832 166Q832 111 809 71T748 10T660 -12ZM660 77Q690 77 710 99T731
166Q731 210 711 233T660 256Q630 256 610 233T589 166Q589 122 609 100T660 77Z" />
<glyph unicode="&amp;" glyph-name="ampersand" horiz-adv-x="772" d="M292 -11Q215 -11 158 15T70 90T38 202Q38 270 76 325T189 413Q159 448 146 479T133 545Q133 593 157 630T225 690T332 712Q395 712 439 689T505 627T526 540H404Q404 577 383 595T331 614Q297
614 277 595T256 546Q256 521 272 495T319 435L515 241Q536 275 559 320L581 364H712L677 296Q637 215 597 159L758 0H605L527 78Q476 31 419 10T292 -11ZM162 210Q162 161 198 128T296 94Q383 94 447 156L262 339Q211 317 187 284T162 210Z" />
<glyph unicode="&apos;" glyph-name="quotesingle" horiz-adv-x="189" d="M51 546L39 755H151L138 546H51Z" />
<glyph unicode="(" glyph-name="parenleft" horiz-adv-x="399" d="M239 -145Q183 -89 140 -16T71 146T45 333Q45 432 70 520T139 681T239 811H367V799Q277 704 224 585T171 333Q171 201 224 82T367 -133V-145H239Z" />
<glyph unicode=")" glyph-name="parenright" horiz-adv-x="399" d="M32 -145V-133Q122 -38 175 81T228 333Q228 465 175 584T32 799V811H160Q216 755 259 682T328 520T354 333Q354 234 329 146T260 -15T160 -145H32Z" />
<glyph unicode="*" glyph-name="asterisk" horiz-adv-x="506" d="M209 360L228 501L116 413L68 498L199 550L69 600L114 681L229 594L209 737H302L282 594L396 681L440 601L310 549L441 497L394 414L282 501L301 360H209Z" />
<glyph unicode="+" glyph-name="plus" horiz-adv-x="597" d="M56 236V343H244V516H353V343H540V236H353V63H244V236H56Z" />
<glyph unicode="," glyph-name="comma" horiz-adv-x="231" d="M14 -116L71 133H195L98 -116H14Z" />
<glyph unicode="-" glyph-name="hyphen" horiz-adv-x="527" d="M310 236V343H729V236H310Z" />
<glyph unicode="." glyph-name="period" horiz-adv-x="240" d="M120 -7Q85 -7 63 15T40 68Q40 100 62 122T120 144Q155 144 177 122T200 68Q200 37 178 15T120 -7Z" />
<glyph unicode="/" glyph-name="slash" horiz-adv-x="421" d="M23 -111L273 777H398L147 -111H23Z" />
<glyph unicode="0" glyph-name="zero" horiz-adv-x="710" d="M355 -12Q258 -12 189 33T83 160T45 350Q45 457 82 539T189 666T355 712Q452 712 521 667T627 539T665 350Q665 242 628 161T521 34T355 -12ZM355 103Q434 103 484 169T534 350Q534 465 484 531T355
597Q275 597 226 531T176 350Q176 235 225 169T355 103Z" />
<glyph unicode="1" glyph-name="one" horiz-adv-x="345" d="M144 0V554L29 527V625L198 700H277V0H144Z" />
<glyph unicode="2" glyph-name="two" horiz-adv-x="571" d="M51 0V93Q115 146 175 198T283 301T359 400T388 495Q388 538 365 571T287 604Q232 604 204 568T176 481H52Q54 558 86 609T171 686T290 712Q397 712 456 654T516 502Q516 444 490 389T420 283T327 188T230
105H533V0H51Z" />
<glyph unicode="3" glyph-name="three" horiz-adv-x="596" d="M297 -12Q228 -12 172 12T82 88T46 216H172Q173 165 205 131T297 96Q353 96 383 127T413 205Q413 260 374 288T272 317H220V422H273Q324 422 358 446T392 517Q392 556 367 579T296 603Q247 603 220
574T189 503H64Q68 600 131 656T296 712Q368 712 417 687T492 619T518 526Q518 467 486 427T405 372Q464 360 501 315T538 200Q538 142 510 94T429 17T297 -12Z" />
<glyph unicode="4" glyph-name="four" horiz-adv-x="641" d="M388 0V130H43V232L371 700H516V241H608V130H516V0H388ZM180 241H396V559L180 241Z" />
<glyph unicode="5" glyph-name="five" horiz-adv-x="620" d="M319 -12Q242 -12 187 15T100 89T63 197H188Q197 154 232 126T319 97Q375 97 410 138T446 240Q446 303 411 340T321 377Q276 377 243 355T196 300H73L133 700H521V588H229L197 426Q219 450 257 465T342
481Q417 481 467 448T543 360T569 241Q569 168 538 111T450 21T319 -12Z" />
<glyph unicode="6" glyph-name="six" horiz-adv-x="634" d="M331 -12Q252 -12 198 17T111 95T64 204T49 327Q49 444 82 530T177 664T327 712Q399 712 449 684T528 609T561 510H442Q433 556 403 581T326 606Q259 606 218 545T174 357Q198 398 246 425T353 452Q411
452 462 424T544 345T576 225Q576 162 546 108T460 21T331 -12ZM324 98Q380 98 416 132T453 220Q453 276 416 310T322 344Q285 344 256 328T209 284T192 222Q192 168 229 133T324 98Z" />
<glyph unicode="7" glyph-name="seven" horiz-adv-x="534" d="M108 0L372 591H27V700H504V609L241 0H108Z" />
<glyph unicode="8" glyph-name="eight" horiz-adv-x="629" d="M315 -12Q243 -12 185 13T93 86T58 195Q58 259 91 307T180 376Q132 397 104 436T76 525Q76 575 103 617T183 686T315 712Q393 712 446 686T526 618T553 525Q553 477 525 437T449 376Q505 355 538 307T571
195Q571 133 537 86T445 14T315 -12ZM315 414Q367 414 397 441T427 510Q427 556 398 582T315 608Q261 608 232 582T203 510Q203 467 232 441T315 414ZM315 95Q379 95 412 126T445 206Q445 259 411 289T315 319Q254 319 219 289T183 206Q183 158 216 127T315 95Z"
/>
<glyph unicode="9" glyph-name="nine" horiz-adv-x="634" d="M307 -12Q234 -12 184 16T106 91T73 190H192Q200 144 230 119T308 94Q375 94 416 155T460 343Q436 302 388 275T281 248Q223 248 172 276T89 355T57 475Q57 538 88 592T174 679T303 712Q382 712 436
683T522 605T569 496T584 373Q584 256 552 170T457 36T307 -12ZM311 356Q348 356 378 372T425 416T442 478Q442 532 405 567T310 602Q254 602 217 568T180 480Q180 424 217 390T311 356Z" />
<glyph unicode=":" glyph-name="colon" horiz-adv-x="242" d="M120 -7Q85 -7 63 15T40 68Q40 100 62 122T120 144Q155 144 177 122T200 68Q200 37 178 15T120 -7ZM120 357Q85 357 63 379T40 432Q40 464 62 486T120 508Q155 508 177 486T200 432Q200 401 178 379T120 357Z" />
<glyph unicode=";" glyph-name="semicolon" horiz-adv-x="266" d="M144 357Q109 357 87 379T64 432Q64 464 86 486T144 508Q179 508 201 486T224 432Q224 401 202 379T144 357ZM24 -116L81 133H205L108 -116H24Z" />
<glyph unicode="&lt;" glyph-name="less" horiz-adv-x="521" d="M289 133L66 359L289 584H451L226 359L451 133H289Z" />
<glyph unicode="=" glyph-name="equal" horiz-adv-x="542" d="M59 345V457H483V345H59ZM59 123V235H483V123H59Z" />
<glyph unicode="&gt;" glyph-name="greater" horiz-adv-x="521" d="M70 133L294 359L70 584H231L455 359L231 133H70Z" />
<glyph unicode="?" glyph-name="question" horiz-adv-x="527" d="M137 218L133 383H179Q230 383 272 392T339 427T364 503Q364 551 335 578T258 606Q208 606 180 579T152 504H31Q30 564 57 611T135 685T259 712Q326 712 377 687T458 616T488 502Q488 433 458 388T375
321T253 298L250 218H137ZM194 -7Q159 -7 137 15T114 68Q114 100 136 122T194 144Q229 144 251 122T273 68Q273 37 251 15T194 -7Z" />
<glyph unicode="@" glyph-name="at" horiz-adv-x="1047" d="M443 -212Q332 -212 249 -170T120 -50T74 134Q74 245 113 340T222 505T388 615T596 654Q712 654 796 611T927 489T973 309Q973 249 958 193T913 92T840 21T740 -5Q688 -5 657 18T618 81Q589 40 544 17T446
-7Q370 -7 328 38T286 162Q286 216 303 266T351 356T426 419T522 442Q615 442 644 371L655 433H760L713 165Q707 126 715 103T758 79Q787 79 808 99T844 153T866 226T874 304Q874 426 797 496T583 567Q494 567 420 535T290 444T204 310T173 145Q173 17 249 -53T459
-124Q504 -124 548 -115T630 -89L651 -172Q557 -212 443 -212ZM486 87Q522 87 552 107T601 161T622 239Q625 285 603 317T532 349Q492 349 462 325T415 264T398 183Q398 140 420 114T486 87Z" />
<glyph unicode="A" glyph-name="A" horiz-adv-x="701" d="M23 0L279 700H423L679 0H543L487 162H214L157 0H23ZM249 262H452L350 553L249 262Z" />
<glyph unicode="B" glyph-name="B" horiz-adv-x="631" d="M68 0V700H349Q458 700 515 650T573 520Q573 454 538 415T451 361Q511 349 550 302T589 191Q589 108 529 54T359 0H68ZM196 406H330Q384 406 413 431T442 502Q442 546 414 571T328 597H196V406ZM196 104H339Q396
104 427 130T459 205Q459 254 426 282T337 310H196V104Z" />
<glyph unicode="C" glyph-name="C" horiz-adv-x="737" d="M385 -12Q279 -12 203 33T86 160T45 349Q45 456 86 538T203 666T385 712Q511 712 591 650T692 474H551Q538 531 496 563T383 596Q286 596 231 530T176 349Q176 234 231 169T383 103Q453 103 495 133T551
218H692Q672 110 592 49T385 -12Z" />
<glyph unicode="D" glyph-name="D" horiz-adv-x="711" d="M68 0V700H307Q430 700 509 657T627 535T666 350Q666 244 628 166T510 44T307 0H68ZM196 110H301Q389 110 440 138T513 220T535 350Q535 425 513 479T440 562T301 591H196V110Z" />
<glyph unicode="E" glyph-name="E" horiz-adv-x="578" d="M68 0V700H525V597H196V405H495V305H196V103H525V0H68Z" />
<glyph unicode="F" glyph-name="F" horiz-adv-x="551" d="M68 0V700H520V597H196V401H458V300H196V0H68Z" />
<glyph unicode="G" glyph-name="G" horiz-adv-x="773" d="M374 -12Q275 -12 201 33T86 158T45 346Q45 454 87 536T208 665T395 712Q518 712 599 653T704 490H561Q545 539 503 566T395 594Q290 594 233 528T176 345Q176 229 232 166T386 102Q481 102 529 153T588
289H411V385H717V0H599L589 92Q555 42 504 15T374 -12Z" />
<glyph unicode="H" glyph-name="H" horiz-adv-x="706" d="M68 0V700H196V409H510V700H638V0H510V305H196V0H68Z" />
<glyph unicode="I" glyph-name="I" horiz-adv-x="264" d="M68 0V700H196V0H68Z" />
<glyph unicode="J" glyph-name="J" horiz-adv-x="532" d="M251 -12Q149 -12 88 45T26 209H154Q155 160 177 131T248 102Q294 102 315 129T336 202V700H464V202Q464 99 407 44T251 -12Z" />
<glyph unicode="K" glyph-name="K" horiz-adv-x="640" d="M68 0V700H196V417L455 700H613L355 422L620 0H463L263 324L196 251V0H68Z" />
<glyph unicode="L" glyph-name="L" horiz-adv-x="551" d="M68 0V700H196V100H506V0H68Z" />
<glyph unicode="M" glyph-name="M" horiz-adv-x="883" d="M68 0V700H220L443 256L663 700H815V0H687V483L492 100H391L196 483V0H68Z" />
<glyph unicode="N" glyph-name="N" horiz-adv-x="721" d="M68 0V700H196L525 207V700H653V0H525L196 492V0H68Z" />
<glyph unicode="O" glyph-name="O" horiz-adv-x="791" d="M396 -12Q291 -12 213 34T90 161T45 350Q45 457 89 538T212 666T396 712Q500 712 579 666T702 539T746 350Q746 243 702 162T579 34T396 -12ZM396 103Q496 103 555 169T615 350Q615 465 556 531T396 597Q296
597 236 531T176 350Q176 235 236 169T396 103Z" />
<glyph unicode="P" glyph-name="P" horiz-adv-x="607" d="M68 0V700H327Q411 700 466 672T548 595T575 485Q575 427 549 379T468 301T327 271H196V0H68ZM196 375H319Q386 375 415 404T445 485Q445 537 416 566T319 596H196V375Z" />
<glyph unicode="Q" glyph-name="Q" horiz-adv-x="788" d="M396 -12Q291 -12 213 34T90 161T45 350Q45 457 89 538T212 666T396 712Q500 712 579 666T702 539T746 350Q746 250 707 172T599 47L761 -127H602L492 -1Q446 -12 396 -12ZM396 103Q496 103 555 169T615
350Q615 465 556 531T396 597Q296 597 236 531T176 350Q176 235 236 169T396 103Z" />
<glyph unicode="R" glyph-name="R" horiz-adv-x="623" d="M68 0V700H325Q409 700 463 672T545 595T572 487Q572 423 539 370T434 293L579 0H432L302 276H196V0H68ZM196 370H317Q381 370 411 401T441 483Q441 533 412 563T316 593H196V370Z" />
<glyph unicode="S" glyph-name="S" horiz-adv-x="597" d="M307 -12Q230 -12 171 14T78 90T43 211H178Q180 162 213 129T306 95Q357 95 387 119T417 185Q417 228 391 252T320 291T226 323Q145 351 103 395T60 512Q59 574 89 618T173 687T295 712Q365 712 418 687T502
617T535 510H398Q397 547 370 575T293 604Q251 605 223 584T194 521Q194 486 216 466T276 431T363 401Q415 383 458 359T527 296T553 194Q553 139 525 92T442 17T307 -12Z" />
<glyph unicode="T" glyph-name="T" horiz-adv-x="591" d="M231 0V597H27V700H564V597H359V0H231Z" />
<glyph unicode="U" glyph-name="U" horiz-adv-x="681" d="M338 -12Q261 -12 199 18T101 111T64 268V700H192V267Q192 185 231 145T341 105Q410 105 450 145T490 267V700H618V268Q618 173 580 111T479 19T338 -12Z" />
<glyph unicode="V" glyph-name="V" horiz-adv-x="699" d="M271 0L15 700H152L350 131L549 700H684L428 0H271Z" />
<glyph unicode="W" glyph-name="W" horiz-adv-x="1010" d="M210 0L25 700H162L288 143L436 700H577L721 143L847 700H985L795 0H643L504 519L361 0H210Z" />
<glyph unicode="X" glyph-name="X" horiz-adv-x="659" d="M34 0L253 354L31 700H178L335 456L479 700H623L404 348L628 0H481L322 247L178 0H34Z" />
<glyph unicode="Y" glyph-name="Y" horiz-adv-x="625" d="M249 0V249L14 700H159L314 377L468 700H611L377 249V0H249Z" />
<glyph unicode="Z" glyph-name="Z" horiz-adv-x="566" d="M47 0V98L369 593H50V700H517V602L193 107H519V0H47Z" />
<glyph unicode="[" glyph-name="bracketleft" horiz-adv-x="360" d="M68 -170V811H306V707H188V-65H306V-170H68Z" />
<glyph unicode="\" glyph-name="backslash" horiz-adv-x="421" d="M273 -111L23 777H148L398 -111H273Z" />
<glyph unicode="]" glyph-name="bracketright" horiz-adv-x="360" d="M54 -170V-65H172V707H54V811H292V-170H54Z" />
<glyph unicode="^" glyph-name="asciicircum" horiz-adv-x="665" d="M33 170L272 700H394L632 170H502L333 549L163 170H33Z" />
<glyph unicode="_" glyph-name="underscore" horiz-adv-x="681" d="M54 -160V-38H627V-160H54Z" />
<glyph unicode="`" glyph-name="grave" horiz-adv-x="258" d="M242 536L16 644V748L242 626V536Z" />
<glyph unicode="a" glyph-name="a" horiz-adv-x="577" d="M236 -12Q172 -12 131 8T70 63T50 138Q50 207 104 250T266 293H392V305Q392 356 363 380T291 404Q252 404 223 386T187 331H62Q67 385 98 425T180 486T292 508Q398 508 459 455T520 305V0H411L399 80Q377
40 338 14T236 -12ZM265 88Q320 88 350 124T389 213H280Q229 213 207 195T185 149Q185 120 207 104T265 88Z" />
<glyph unicode="b" glyph-name="b" horiz-adv-x="652" d="M359 -12Q303 -12 261 9T193 68L179 0H65V720H193V425Q217 458 256 483T359 508Q429 508 484 474T571 381T603 247Q603 172 571 114T484 22T359 -12ZM332 100Q393 100 433 141T473 247Q473 312 433 354T332
396Q270 396 231 355T191 248Q191 183 230 142T332 100Z" />
<glyph unicode="c" glyph-name="c" horiz-adv-x="600" d="M308 -12Q232 -12 174 21T83 113T49 248Q49 324 82 383T174 475T308 508Q403 508 468 459T551 322H416Q406 358 377 378T307 399Q254 399 217 359T180 248Q180 177 217 137T307 97Q347 97 376 117T416
174H551Q533 90 468 39T308 -12Z" />
<glyph unicode="d" glyph-name="d" horiz-adv-x="652" d="M293 -12Q223 -12 168 22T81 115T49 249Q49 324 81 382T168 474T293 508Q349 508 391 487T459 428V720H587V0H473L459 71Q435 38 396 13T293 -12ZM320 100Q382 100 421 141T461 248Q461 313 422 354T320
396Q259 396 219 355T179 249Q179 184 219 142T320 100Z" />
<glyph unicode="e" glyph-name="e" horiz-adv-x="598" d="M306 -12Q231 -12 173 20T82 110T49 244Q49 321 81 381T171 474T307 508Q380 508 436 476T523 389T555 265Q555 254 555 242T553 217H176Q180 159 216 126T305 93Q344 93 370 110T410 156H540Q526 109
494 71T414 10T306 -12ZM307 404Q260 404 224 378T178 297H425Q422 346 389 375T307 404Z" />
<glyph unicode="f" glyph-name="f" horiz-adv-x="359" d="M88 0V389H20V496H88V554Q88 644 133 682T257 720H312V611H277Q244 611 230 598T216 554V496H323V389H216V0H88Z" />
<glyph unicode="g" glyph-name="g" horiz-adv-x="569" d="M275 148Q239 148 208 156L171 119Q188 110 217 104T311 92Q410 83 455 45T500 -60Q500 -104 476 -143T402 -207T274 -232Q168 -232 103 -193T38 -74Q38 -7 103 42Q83 51 69 61T43 82V105L130 197Q72 248
72 328Q72 378 96 419T166 484T275 508Q317 508 353 496H541V418L456 412Q476 374 476 328Q476 278 452 237T383 172T275 148ZM275 246Q314 246 339 267T365 327Q365 366 340 387T275 408Q234 408 209 387T184 327Q184 288 209 267T275 246ZM155 -61Q155 -98 189
-116T274 -135Q322 -135 352 -116T382 -63Q382 -36 363 -18T285 4Q244 7 209 13Q180 -3 168 -22T155 -61Z" />
<glyph unicode="h" glyph-name="h" horiz-adv-x="608" d="M65 0V720H193V420Q218 461 260 484T358 508Q450 508 500 450T551 280V0H424V268Q424 332 399 366T318 400Q264 400 229 362T193 256V0H65Z" />
<glyph unicode="i" glyph-name="i" horiz-adv-x="267" d="M134 573Q99 573 77 594T54 647Q54 679 76 699T134 720Q169 720 191 700T214 647Q214 615 192 594T134 573ZM70 0V496H198V0H70Z" />
<glyph unicode="j" glyph-name="j" horiz-adv-x="268" d="M136 573Q101 573 79 594T56 647Q56 679 78 699T136 720Q171 720 193 700T216 647Q216 615 194 594T136 573ZM-29 -220V-111H10Q43 -111 57 -98T71 -54V496H199V-54Q199 -144 154 -182T30 -220H-29Z" />
<glyph unicode="k" glyph-name="k" horiz-adv-x="568" d="M65 0V720H193V295L369 496H521L318 270L554 0H394L193 249V0H65Z" />
<glyph unicode="l" glyph-name="l" horiz-adv-x="259" d="M65 0V720H193V0H65Z" />
<glyph unicode="m" glyph-name="m" horiz-adv-x="937" d="M65 0V496H178L189 429Q213 465 252 486T344 508Q459 508 507 419Q534 460 579 484T679 508Q776 508 828 450T880 280V0H752V268Q752 332 728 366T652 400Q600 400 569 362T537 256V0H409V268Q409 332
384 366T307 400Q256 400 225 362T193 256V0H65Z" />
<glyph unicode="n" glyph-name="n" horiz-adv-x="608" d="M65 0V496H178L188 412Q211 456 254 482T357 508Q449 508 500 450T551 280V0H423V268Q423 332 397 366T316 400Q262 400 228 362T193 256V0H65Z" />
<glyph unicode="o" glyph-name="o" horiz-adv-x="606" d="M303 -12Q231 -12 174 21T83 112T49 248Q49 325 83 383T174 475T304 508Q375 508 432 475T523 384T557 248Q557 171 524 113T432 21T303 -12ZM303 99Q353 99 390 136T427 248Q427 322 390 359T304 397Q253
397 217 360T180 248Q180 174 216 137T303 99Z" />
<glyph unicode="p" glyph-name="p" horiz-adv-x="652" d="M65 -220V496H179L193 425Q217 458 256 483T359 508Q429 508 484 474T571 381T603 247Q603 172 571 114T484 22T359 -12Q303 -12 261 9T193 68V-220H65ZM332 100Q393 100 433 141T473 247Q473 312 433
354T332 396Q270 396 231 355T191 248Q191 183 230 142T332 100Z" />
<glyph unicode="q" glyph-name="q" horiz-adv-x="652" d="M459 -220V71Q435 38 396 13T293 -12Q223 -12 168 22T81 115T49 249Q49 324 81 382T168 474T293 508Q349 508 391 487T459 428L473 496H587V-220H459ZM320 100Q382 100 421 141T461 248Q461 313 422 354T320
396Q259 396 219 355T179 249Q179 184 219 142T320 100Z" />
<glyph unicode="r" glyph-name="r" horiz-adv-x="396" d="M65 0V496H179L191 403Q218 451 264 479T374 508V373H338Q296 373 263 360T212 315T193 226V0H65Z" />
<glyph unicode="s" glyph-name="s" horiz-adv-x="525" d="M270 -12Q204 -12 154 9T74 69T38 157H167Q173 128 199 108T268 87Q310 87 329 104T349 143Q349 175 321 186T243 209Q211 216 178 226T118 251T73 291T56 352Q56 418 108 463T256 508Q344 508 396 467T459
354H338Q327 409 255 409Q219 409 200 395T180 360Q180 338 209 325T286 301Q338 289 381 275T451 232T477 150Q478 104 453 67T381 9T270 -12Z" />
<glyph unicode="t" glyph-name="t" horiz-adv-x="421" d="M286 0Q208 0 161 38T114 173V389H29V496H114L129 629H242V496H376V389H242V172Q242 136 257 123T311 109H373V0H286Z" />
<glyph unicode="u" glyph-name="u" horiz-adv-x="608" d="M251 -12Q158 -12 108 46T57 216V496H184V228Q184 164 210 130T292 96Q345 96 379 134T414 240V496H542V0H429L419 84Q396 40 353 14T251 -12Z" />
<glyph unicode="v" glyph-name="v" horiz-adv-x="553" d="M199 0L17 496H151L277 121L403 496H537L354 0H199Z" />
<glyph unicode="w" glyph-name="w" horiz-adv-x="802" d="M162 0L17 496H144L230 139L330 496H472L572 139L659 496H786L640 0H507L401 371L295 0H162Z" />
<glyph unicode="x" glyph-name="x" horiz-adv-x="561" d="M18 0L198 248L18 496H155L281 320L406 496H544L363 248L544 0H406L281 176L155 0H18Z" />
<glyph unicode="y" glyph-name="y" horiz-adv-x="597" d="M127 -220L242 33H212L19 496H158L297 147L442 496H578L263 -220H127Z" />
<glyph unicode="z" glyph-name="z" horiz-adv-x="479" d="M33 0V103L286 390H36V496H432V393L175 106H437V0H33Z" />
<glyph unicode="{" glyph-name="braceleft" horiz-adv-x="462" d="M338 -173Q261 -173 214 -131T167 -7Q167 26 172 54T182 110T188 174Q188 208 167 234T89 268V371Q145 378 166 403T188 465Q188 499 183 527T172 584T167 646Q167 727 214 769T338 811H401V705H362Q290
705 290 634Q290 595 299 556T309 460Q309 407 283 370T200 320V318Q257 306 283 269T309 178Q309 122 300 83T290 4Q290 -67 362 -67H401V-173H338Z" />
<glyph unicode="|" glyph-name="bar" horiz-adv-x="264" d="M68 -100V720H196V-100H68Z" />
<glyph unicode="}" glyph-name="braceright" horiz-adv-x="462" d="M62 -173V-67H100Q173 -67 173 4Q173 43 163 82T153 178Q153 231 179 268T263 318V320Q205 332 179 369T153 460Q153 516 163 555T173 634Q173 705 100 705H62V811H124Q201 811 248 769T296 646Q296
612 291 584T280 528T274 465Q274 429 296 404T374 371V268Q318 261 296 235T274 174Q274 139 279 111T290 54T296 -7Q296 -89 249 -131T124 -173H62Z" />
<glyph unicode="~" glyph-name="asciitilde" d="M373 228Q343 228 319 238T275 262T234 285T192 295Q137 295 127 229H32Q48 323 92 365T199 408Q230 408 254 398T299 375T340 352T381 342Q407 342 424 359T445 408H541Q526 314 482 271T373 228Z" />
<glyph unicode="&#xa0;" glyph-name="uni00A0" horiz-adv-x="238" />
<glyph unicode="&#xa1;" glyph-name="exclamdown" horiz-adv-x="296" d="M149 417Q113 417 91 438T68 492Q68 524 90 545T149 567Q183 567 205 546T228 492Q228 460 206 439T149 417ZM78 -139L92 339H200L215 -139H78Z" />
<glyph unicode="&#xa2;" glyph-name="cent" horiz-adv-x="600" d="M247 -104V-6Q188 7 144 42T74 129T49 248Q49 313 74 366T143 454T247 502V600H365V503Q438 489 487 442T551 322H416Q406 358 377 378T307 399Q254 399 217 359T180 248Q180 177 217 137T307
97Q347 97 376 117T416 174H551Q536 103 487 55T365 -7V-104H247Z" />
<glyph unicode="&#xa3;" glyph-name="sterling" horiz-adv-x="621" d="M76 0V75Q115 114 136 155T157 263Q157 280 154 298H40V386H126Q117 412 111 440T104 499Q104 565 132 613T212 686T331 712Q407 712 457 683T533 605T562 496H444Q442 543 414 574T333 606Q289
606 257 579T225 495Q225 469 233 442T251 386H438V298H275Q278 280 278 263Q278 222 262 180T209 102H565V0H76Z" />
<glyph unicode="&#xa4;" glyph-name="currency" horiz-adv-x="555" d="M115 81L63 134L120 191Q87 235 87 298Q87 360 121 405L63 464L115 516L178 453Q222 475 279 475Q334 475 378 453L440 516L492 464L435 406Q470 361 470 298Q470 235 436 190L492 134L440
81L379 142Q334 119 278 119Q220 119 176 142L115 81ZM278 201Q309 201 336 223T363 297Q363 348 337 371T278 394Q245 394 220 371T194 297Q194 246 219 224T278 201Z" />
<glyph unicode="&#xa5;" glyph-name="yen" horiz-adv-x="641" d="M57 150V238H257V249L223 314H57V402H177L21 700H166L321 366L476 700H620L465 402H585V314L419 313L385 249V238H585V150H385V0H257V150H57Z" />
<glyph unicode="&#xa6;" glyph-name="brokenbar" horiz-adv-x="264" d="M68 394V720H196V394H68ZM68 -100V226H196V-100H68Z" />
<glyph unicode="&#xa7;" glyph-name="section" horiz-adv-x="609" d="M301 -232Q230 -232 177 -207T94 -137T61 -30H198Q199 -67 226 -95T303 -124Q345 -125 373 -104T401 -41Q401 -6 380 13T320 44T233 73Q181 91 138 116T69 181T43 280Q43 361 99 417Q72 456
72 512Q71 574 101 618T185 687T307 712Q377 712 430 687T514 617T547 510H410Q409 547 382 575T305 604Q263 605 235 584T206 521Q206 486 228 467T288 436T375 407Q427 389 470 364T539 299T565 200Q565 161 551 126T509 63Q536 24 536 -32Q536 -94 506 -138T423
-207T301 -232ZM408 134Q429 157 429 191Q429 228 407 250T347 288T259 322Q240 328 226 334T200 346Q179 323 179 289Q179 253 200 231T259 192T349 158Q365 153 379 147T408 134Z" />
<glyph unicode="&#xa8;" glyph-name="dieresis" horiz-adv-x="345" d="M263 564Q237 564 219 582T201 626Q201 652 219 670T263 688Q289 688 306 670T324 626Q324 600 307 582T263 564ZM82 564Q56 564 39 582T21 626Q21 652 38 670T82 688Q108 688 126 670T144
626Q144 600 126 582T82 564Z" />
<glyph unicode="&#xa9;" glyph-name="copyright" horiz-adv-x="786" d="M393 -6Q290 -6 212 40T89 166T44 352Q44 456 88 536T211 662T393 708Q497 708 575 663T698 537T742 352Q742 247 698 167T576 40T393 -6ZM393 41Q486 41 553 80T656 189T693 352Q693 445
657 515T553 623T393 662Q301 662 234 624T131 515T94 352Q94 259 130 189T234 80T393 41ZM394 123Q332 123 282 150T204 229T175 352Q175 423 203 474T282 553T394 581Q471 581 527 539T601 422H489Q478 455 453 473T391 492Q344 492 313 457T281 352Q281 282
312 247T391 211Q429 211 453 230T489 281H601Q584 209 528 166T394 123Z" />
<glyph unicode="&#xaa;" glyph-name="ordfeminine" horiz-adv-x="459" d="M197 348Q149 348 111 370T51 434T29 530Q29 585 51 625T110 688T195 710Q242 710 273 693T321 648L330 705H420V354H330L321 409Q306 382 275 365T197 348ZM225 425Q265 425 293 452T321
529Q321 579 293 605T225 632Q187 632 159 606T131 529Q131 479 159 452T225 425Z" />
<glyph unicode="&#xab;" glyph-name="guillemotleft" horiz-adv-x="505" d="M334 120L244 295L334 470H455L362 295L455 120H334ZM133 120L42 295L133 470H253L160 295L253 120H133Z" />
<glyph unicode="&#xac;" glyph-name="logicalnot" horiz-adv-x="689" d="M511 201V338H46V437H639V201H511Z" />
<glyph unicode="&#xad;" glyph-name="uni00AD" horiz-adv-x="600" d="M310 236V343H729V236H310Z" />
<glyph unicode="&#xae;" glyph-name="registered" horiz-adv-x="509" d="M255 293Q194 293 147 320T72 394T45 502Q45 563 72 610T146 685T255 712Q316 712 363 685T436 611T463 502Q463 442 437 395T363 320T255 293ZM255 339Q327 339 370 384T414 502Q414 575
371 620T255 665Q182 665 139 620T95 502Q95 430 138 385T255 339ZM169 398V611H273Q307 611 327 593T348 544Q348 497 303 482L357 399L289 398L242 477H229V398H169ZM228 520H265Q274 520 280 525T287 541Q287 551 281 555T265 560H228V520Z" />
<glyph unicode="&#xaf;" glyph-name="overscore" horiz-adv-x="406" d="M16 579V670H390V579H16Z" />
<glyph unicode="&#xb0;" glyph-name="degree" horiz-adv-x="360" d="M179 426Q141 426 109 443T58 493T38 568Q38 612 57 644T109 694T180 712Q219 712 251 695T302 645T322 568Q322 525 303 493T251 444T179 426ZM179 508Q200 508 218 523T237 569Q237 600 219
615T180 630Q160 630 142 615T123 569Q123 538 141 523T179 508Z" />
<glyph unicode="&#xb1;" glyph-name="plusminus" horiz-adv-x="617" d="M62 282V389H254V516H363V389H555V282H363V154H254V282H62ZM62 0V112H555V0H62Z" />
<glyph unicode="&#xb2;" glyph-name="uni00B2" horiz-adv-x="357" d="M37 352V424L154 507Q182 528 199 549T216 597Q216 618 205 629T176 640Q136 640 131 593H34Q37 644 75 678T185 712Q252 712 286 679T320 603Q320 564 294 535T213 474L140 429H319V352H37Z" />
<glyph unicode="&#xb3;" glyph-name="uni00B3" horiz-adv-x="352" d="M175 348Q101 348 63 378T21 462H121Q124 438 137 429T171 419Q192 419 205 430T218 462Q218 484 204 495T165 506H125V555H161Q185 555 199 566T214 599Q214 618 202 629T167 640Q126 640
118 601H25Q28 646 65 679T177 712Q239 712 278 683T318 609Q318 577 301 558T252 531V528Q284 519 303 499T323 446Q323 403 283 376T175 348Z" />
<glyph unicode="&#xb4;" glyph-name="acute" horiz-adv-x="258" d="M16 536V626L242 748V644L16 536Z" />
<glyph unicode="&#xb5;" glyph-name="uni00B5" horiz-adv-x="617" d="M65 -220V496H193V228Q193 164 219 130T301 96Q355 96 389 134T423 240V496H551V0H439L429 84Q405 40 362 14T260 -12Q220 -12 193 4V-220H65Z" />
<glyph unicode="&#xb6;" glyph-name="paragraph" horiz-adv-x="641" d="M285 -100V283H268Q185 283 133 311T56 387T31 491Q31 547 56 594T133 671T268 700H573V-100H465V602H393V-100H285Z" />
<glyph unicode="&#xb7;" glyph-name="middot" horiz-adv-x="240" d="M120 253Q85 253 63 275T40 328Q40 360 62 382T120 404Q155 404 177 382T200 328Q200 297 178 275T120 253Z" />
<glyph unicode="&#xb8;" glyph-name="cedilla" horiz-adv-x="293" d="M16 -263V-189H128Q181 -189 181 -153Q181 -118 128 -118H67V7H147V-50Q181 -49 210 -60T258 -94T277 -155Q277 -209 238 -236T147 -263H16Z" />
<glyph unicode="&#xb9;" glyph-name="uni00B9" horiz-adv-x="233" d="M93 352V611L24 595V656L135 704H192V352H93Z" />
<glyph unicode="&#xba;" glyph-name="ordmasculine" horiz-adv-x="446" d="M222 349Q165 349 122 372T54 436T29 531Q29 585 54 625T122 689T223 712Q280 712 323 689T392 626T417 531Q417 478 392 437T323 372T222 349ZM222 427Q259 427 287 453T316 531Q316
583 288 609T222 636Q185 636 158 610T130 531Q130 479 157 453T222 427Z" />
<glyph unicode="&#xbb;" glyph-name="guillemotright" horiz-adv-x="505" d="M252 120L345 295L252 470H373L463 295L373 120H252ZM50 120L143 295L50 470H171L261 295L171 120H50Z" />
<glyph unicode="&#xbc;" glyph-name="onequarter" horiz-adv-x="706" d="M109 352V611L39 595V656L151 704H207V352H109ZM75 0L452 700H574L198 0H75ZM532 0V66H344V120L497 353H630V124H675V66H630V0H532ZM439 126H536V279L439 126Z" />
<glyph unicode="&#xbd;" glyph-name="onehalf" horiz-adv-x="748" d="M109 352V611L39 595V656L151 704H207V352H109ZM73 0L446 700H569L196 0H73ZM407 -1V71L524 154Q553 175 569 196T586 244Q586 265 575 276T547 287Q507 287 502 240H404Q407 291 445 325T555
359Q622 359 656 326T690 250Q690 211 664 182T583 121L510 76H690V-1H407Z" />
<glyph unicode="&#xbe;" glyph-name="threequarters" horiz-adv-x="809" d="M200 348Q125 348 87 378T45 462H145Q148 438 161 429T195 419Q217 419 230 430T243 462Q243 484 228 495T189 506H149V555H186Q210 555 224 566T238 599Q238 618 226 629T192 640Q151
640 143 601H50Q53 646 90 679T201 712Q264 712 303 683T343 609Q343 577 325 558T276 531V528Q309 519 328 499T347 446Q347 403 307 376T200 348ZM179 0L559 700H682L302 0H179ZM635 0V66H447V120L594 353H734V124H778V66H734V0H635ZM543 124H639V285L543 124Z"
/>
<glyph unicode="&#xbf;" glyph-name="questiondown" horiz-adv-x="527" d="M333 412Q298 412 276 434T253 488Q253 519 275 541T333 563Q368 563 390 541T413 488Q413 456 391 434T333 412ZM268 -156Q200 -156 149 -131T68 -59T39 54Q39 123 69 168T152 235T273
258L277 339H390L394 173H348Q297 173 255 164T188 130T163 54Q163 6 192 -22T269 -50Q319 -50 347 -22T375 53H496Q497 -8 470 -55T392 -129T268 -156Z" />
<glyph unicode="&#xc0;" glyph-name="Agrave" horiz-adv-x="701" d="M23 0L279 700H423L679 0H543L487 162H214L157 0H23ZM249 262H452L350 553L249 262ZM401 740L175 848V952L401 830V740Z" />
<glyph unicode="&#xc1;" glyph-name="Aacute" horiz-adv-x="701" d="M23 0L279 700H423L679 0H543L487 162H214L157 0H23ZM249 262H452L350 553L249 262ZM301 740V830L527 952V848L301 740Z" />
<glyph unicode="&#xc2;" glyph-name="Acircumflex" horiz-adv-x="701" d="M23 0L279 700H423L679 0H543L487 162H214L157 0H23ZM249 262H452L350 553L249 262ZM205 747V839L351 919L497 839V747L351 829L205 747Z" />
<glyph unicode="&#xc3;" glyph-name="Atilde" horiz-adv-x="701" d="M23 0L279 700H423L679 0H543L487 162H214L157 0H23ZM249 262H452L350 553L249 262ZM414 752Q386 752 366 763T329 786T291 798Q255 798 248 753H180Q190 817 220 847T297 877Q325 877 345 866T382
843T420 831Q437 831 448 842T463 876H531Q522 812 491 782T414 752Z" />
<glyph unicode="&#xc4;" glyph-name="Adieresis" horiz-adv-x="701" d="M23 0L279 700H423L679 0H543L487 162H214L157 0H23ZM249 262H452L350 553L249 262ZM441 768Q415 768 397 786T379 830Q379 856 397 874T441 892Q467 892 485 874T503 830Q503 804 485 786T441
768ZM261 768Q235 768 217 786T199 830Q199 856 217 874T261 892Q287 892 305 874T323 830Q323 804 305 786T261 768Z" />
<glyph unicode="&#xc5;" glyph-name="Aring" horiz-adv-x="701" d="M23 0L279 700H423L679 0H543L487 162H214L157 0H23ZM249 262H452L350 553L249 262ZM351 751Q305 751 272 781T238 863Q238 915 271 945T351 975Q399 975 432 945T466 863Q466 811 433 781T351
751ZM351 809Q374 809 389 824T404 863Q404 888 389 902T351 917Q330 917 315 903T300 863Q300 839 315 824T351 809Z" />
<glyph unicode="&#xc6;" glyph-name="AE" horiz-adv-x="939" d="M23 0L402 700H885V599H614V405H855V306H614V101H885V0H486V138H237L162 0H23ZM486 602L290 237H486V602Z" />
<glyph unicode="&#xc7;" glyph-name="Ccedilla" horiz-adv-x="737" d="M385 -12Q279 -12 203 33T86 160T45 349Q45 456 86 538T203 666T385 712Q511 712 591 650T692 474H551Q538 531 496 563T383 596Q286 596 231 530T176 349Q176 234 231 169T383 103Q453 103
495 133T551 218H692Q672 110 592 49T385 -12ZM301 -265V-191H413Q466 -191 466 -155Q466 -120 413 -120H352V5H432V-52Q466 -51 495 -62T543 -96T562 -157Q562 -211 523 -238T432 -265H301Z" />
<glyph unicode="&#xc8;" glyph-name="Egrave" horiz-adv-x="578" d="M68 0V700H525V597H196V405H495V305H196V103H525V0H68ZM349 740L123 848V952L349 830V740Z" />
<glyph unicode="&#xc9;" glyph-name="Eacute" horiz-adv-x="578" d="M68 0V700H525V597H196V405H495V305H196V103H525V0H68ZM249 740V830L475 952V848L249 740Z" />
<glyph unicode="&#xca;" glyph-name="Ecircumflex" horiz-adv-x="578" d="M68 0V700H525V597H196V405H495V305H196V103H525V0H68ZM153 747V839L299 919L445 839V747L299 829L153 747Z" />
<glyph unicode="&#xcb;" glyph-name="Edieresis" horiz-adv-x="578" d="M68 0V700H525V597H196V405H495V305H196V103H525V0H68ZM389 768Q363 768 345 786T327 830Q327 856 345 874T389 892Q415 892 433 874T451 830Q451 804 433 786T389 768ZM209 768Q183 768
165 786T147 830Q147 856 165 874T209 892Q235 892 253 874T271 830Q271 804 253 786T209 768Z" />
<glyph unicode="&#xcc;" glyph-name="Igrave" horiz-adv-x="264" d="M68 0V700H196V0H68ZM438 740L212 848V952L438 830V740Z" />
<glyph unicode="&#xcd;" glyph-name="Iacute" horiz-adv-x="264" d="M68 0V700H196V0H68ZM82 740V830L308 952V848L82 740Z" />
<glyph unicode="&#xce;" glyph-name="Icircumflex" horiz-adv-x="264" d="M68 0V700H196V0H68ZM242 747V839L388 919L534 839V747L388 829L242 747Z" />
<glyph unicode="&#xcf;" glyph-name="Idieresis" horiz-adv-x="264" d="M68 0V700H196V0H68ZM478 768Q452 768 434 786T416 830Q416 856 434 874T478 892Q504 892 522 874T540 830Q540 804 522 786T478 768ZM298 768Q272 768 254 786T236 830Q236 856 254 874T298
892Q324 892 342 874T360 830Q360 804 342 786T298 768Z" />
<glyph unicode="&#xd0;" glyph-name="Eth" horiz-adv-x="724" d="M81 0V295H6V405H81V700H320Q443 700 522 657T640 535T679 350Q679 244 641 166T523 44T320 0H81ZM209 110H314Q402 110 453 138T526 220T548 350Q548 425 526 479T453 562T314 591H209V405H386V295H209V110Z"
/>
<glyph unicode="&#xd1;" glyph-name="Ntilde" horiz-adv-x="721" d="M68 0V700H196L525 207V700H653V0H525L196 492V0H68ZM424 752Q396 752 376 763T339 786T301 798Q265 798 258 753H190Q200 817 230 847T307 877Q335 877 355 866T392 843T430 831Q447 831 458
842T473 876H541Q532 812 501 782T424 752Z" />
<glyph unicode="&#xd2;" glyph-name="Ograve" horiz-adv-x="791" d="M396 -12Q291 -12 213 34T90 161T45 350Q45 457 89 538T212 666T396 712Q500 712 579 666T702 539T746 350Q746 243 702 162T579 34T396 -12ZM396 103Q496 103 555 169T615 350Q615 465 556
531T396 597Q296 597 236 531T176 350Q176 235 236 169T396 103ZM446 740L220 848V952L446 830V740Z" />
<glyph unicode="&#xd3;" glyph-name="Oacute" horiz-adv-x="791" d="M396 -12Q291 -12 213 34T90 161T45 350Q45 457 89 538T212 666T396 712Q500 712 579 666T702 539T746 350Q746 243 702 162T579 34T396 -12ZM396 103Q496 103 555 169T615 350Q615 465 556
531T396 597Q296 597 236 531T176 350Q176 235 236 169T396 103ZM346 740V830L572 952V848L346 740Z" />
<glyph unicode="&#xd4;" glyph-name="Ocircumflex" horiz-adv-x="791" d="M396 -12Q291 -12 213 34T90 161T45 350Q45 457 89 538T212 666T396 712Q500 712 579 666T702 539T746 350Q746 243 702 162T579 34T396 -12ZM396 103Q496 103 555 169T615 350Q615 465
556 531T396 597Q296 597 236 531T176 350Q176 235 236 169T396 103ZM250 747V839L396 919L542 839V747L396 829L250 747Z" />
<glyph unicode="&#xd5;" glyph-name="Otilde" horiz-adv-x="791" d="M396 -12Q291 -12 213 34T90 161T45 350Q45 457 89 538T212 666T396 712Q500 712 579 666T702 539T746 350Q746 243 702 162T579 34T396 -12ZM396 103Q496 103 555 169T615 350Q615 465 556
531T396 597Q296 597 236 531T176 350Q176 235 236 169T396 103ZM459 752Q431 752 411 763T374 786T336 798Q300 798 293 753H225Q235 817 265 847T342 877Q370 877 390 866T427 843T465 831Q482 831 493 842T508 876H576Q567 812 536 782T459 752Z" />
<glyph unicode="&#xd6;" glyph-name="Odieresis" horiz-adv-x="791" d="M396 -12Q291 -12 213 34T90 161T45 350Q45 457 89 538T212 666T396 712Q500 712 579 666T702 539T746 350Q746 243 702 162T579 34T396 -12ZM396 103Q496 103 555 169T615 350Q615 465 556
531T396 597Q296 597 236 531T176 350Q176 235 236 169T396 103ZM486 768Q460 768 442 786T424 830Q424 856 442 874T486 892Q512 892 530 874T548 830Q548 804 530 786T486 768ZM306 768Q280 768 262 786T244 830Q244 856 262 874T306 892Q332 892 350 874T368
830Q368 804 350 786T306 768Z" />
<glyph unicode="&#xd7;" glyph-name="multiply" horiz-adv-x="514" d="M132 89L56 164L181 290L59 412L135 488L257 365L382 491L457 415L332 290L455 167L379 92L257 215L132 89Z" />
<glyph unicode="&#xd8;" glyph-name="Oslash" horiz-adv-x="784" d="M31 0L124 109Q86 155 66 216T45 350Q45 457 89 538T212 666T395 712Q452 712 502 698T594 656L632 700H754L663 595Q703 548 724 486T745 350Q745 243 701 162T578 34T395 -12Q336 -12 285
3T193 46L153 0H31ZM175 350Q175 267 208 207L515 564Q464 597 395 597Q295 597 235 531T175 350ZM395 103Q495 103 555 169T615 350Q615 436 579 497L271 138Q323 103 395 103Z" />
<glyph unicode="&#xd9;" glyph-name="Ugrave" horiz-adv-x="681" d="M338 -12Q261 -12 199 18T101 111T64 268V700H192V267Q192 185 231 145T341 105Q410 105 450 145T490 267V700H618V268Q618 173 580 111T479 19T338 -12ZM390 740L164 848V952L390 830V740Z" />
<glyph unicode="&#xda;" glyph-name="Uacute" horiz-adv-x="681" d="M338 -12Q261 -12 199 18T101 111T64 268V700H192V267Q192 185 231 145T341 105Q410 105 450 145T490 267V700H618V268Q618 173 580 111T479 19T338 -12ZM290 740V830L516 952V848L290 740Z" />
<glyph unicode="&#xdb;" glyph-name="Ucircumflex" horiz-adv-x="681" d="M338 -12Q261 -12 199 18T101 111T64 268V700H192V267Q192 185 231 145T341 105Q410 105 450 145T490 267V700H618V268Q618 173 580 111T479 19T338 -12ZM194 747V839L340 919L486 839V747L340
829L194 747Z" />
<glyph unicode="&#xdc;" glyph-name="Udieresis" horiz-adv-x="681" d="M338 -12Q261 -12 199 18T101 111T64 268V700H192V267Q192 185 231 145T341 105Q410 105 450 145T490 267V700H618V268Q618 173 580 111T479 19T338 -12ZM430 768Q404 768 386 786T368 830Q368
856 386 874T430 892Q456 892 474 874T492 830Q492 804 474 786T430 768ZM250 768Q224 768 206 786T188 830Q188 856 206 874T250 892Q276 892 294 874T312 830Q312 804 294 786T250 768Z" />
<glyph unicode="&#xdd;" glyph-name="Yacute" horiz-adv-x="625" d="M249 0V249L14 700H159L314 377L468 700H611L377 249V0H249ZM264 740V830L490 952V848L264 740Z" />
<glyph unicode="&#xde;" glyph-name="Thorn" horiz-adv-x="607" d="M68 0V700H196V565H327Q411 565 466 537T548 460T575 349Q575 292 549 244T468 166T327 136H196V0H68ZM196 239H319Q386 239 415 269T445 349Q445 401 416 430T319 460H196V239Z" />
<glyph unicode="&#xdf;" glyph-name="germandbls" horiz-adv-x="707" d="M474 -10Q382 -10 324 38T256 175H377Q381 134 406 110T472 85Q510 85 530 102T551 151Q551 181 532 200T458 238Q376 266 340 295T304 370Q304 398 317 417T349 449T386 476T418 504T431
543Q431 581 401 603T319 625Q254 625 224 592T194 499V0H66V509Q66 574 96 624T184 703T324 732Q397 732 449 709T530 645T558 556Q558 526 546 505T514 469T477 442T446 418T433 390Q433 378 440 368T470 347T535 321Q610 294 643 256T676 159Q676 84 622 37T474
-10Z" />
<glyph unicode="&#xe0;" glyph-name="agrave" horiz-adv-x="577" d="M236 -12Q172 -12 131 8T70 63T50 138Q50 207 104 250T266 293H392V305Q392 356 363 380T291 404Q252 404 223 386T187 331H62Q67 385 98 425T180 486T292 508Q398 508 459 455T520 305V0H411L399
80Q377 40 338 14T236 -12ZM265 88Q320 88 350 124T389 213H280Q229 213 207 195T185 149Q185 120 207 104T265 88ZM340 536L114 644V748L340 626V536Z" />
<glyph unicode="&#xe1;" glyph-name="aacute" horiz-adv-x="577" d="M236 -12Q172 -12 131 8T70 63T50 138Q50 207 104 250T266 293H392V305Q392 356 363 380T291 404Q252 404 223 386T187 331H62Q67 385 98 425T180 486T292 508Q398 508 459 455T520 305V0H411L399
80Q377 40 338 14T236 -12ZM265 88Q320 88 350 124T389 213H280Q229 213 207 195T185 149Q185 120 207 104T265 88ZM256 536V626L482 748V644L256 536Z" />
<glyph unicode="&#xe2;" glyph-name="acircumflex" horiz-adv-x="577" d="M236 -12Q172 -12 131 8T70 63T50 138Q50 207 104 250T266 293H392V305Q392 356 363 380T291 404Q252 404 223 386T187 331H62Q67 385 98 425T180 486T292 508Q398 508 459 455T520 305V0H411L399
80Q377 40 338 14T236 -12ZM265 88Q320 88 350 124T389 213H280Q229 213 207 195T185 149Q185 120 207 104T265 88ZM144 543V635L290 715L436 635V543L290 625L144 543Z" />
<glyph unicode="&#xe3;" glyph-name="atilde" horiz-adv-x="577" d="M236 -12Q172 -12 131 8T70 63T50 138Q50 207 104 250T266 293H392V305Q392 356 363 380T291 404Q252 404 223 386T187 331H62Q67 385 98 425T180 486T292 508Q398 508 459 455T520 305V0H411L399
80Q377 40 338 14T236 -12ZM265 88Q320 88 350 124T389 213H280Q229 213 207 195T185 149Q185 120 207 104T265 88ZM348 548Q320 548 300 559T263 582T226 594Q189 594 182 549H114Q124 613 154 643T231 673Q259 673 279 662T316 639T354 627Q371 627 382 638T397
672H466Q456 608 425 578T348 548Z" />
<glyph unicode="&#xe4;" glyph-name="adieresis" horiz-adv-x="577" d="M236 -12Q172 -12 131 8T70 63T50 138Q50 207 104 250T266 293H392V305Q392 356 363 380T291 404Q252 404 223 386T187 331H62Q67 385 98 425T180 486T292 508Q398 508 459 455T520 305V0H411L399
80Q377 40 338 14T236 -12ZM265 88Q320 88 350 124T389 213H280Q229 213 207 195T185 149Q185 120 207 104T265 88ZM380 564Q354 564 336 582T318 626Q318 652 336 670T380 688Q406 688 423 670T441 626Q441 600 424 582T380 564ZM199 564Q173 564 156 582T138
626Q138 652 155 670T199 688Q225 688 243 670T261 626Q261 600 243 582T199 564Z" />
<glyph unicode="&#xe5;" glyph-name="aring" horiz-adv-x="577" d="M236 -12Q172 -12 131 8T70 63T50 138Q50 207 104 250T266 293H392V305Q392 356 363 380T291 404Q252 404 223 386T187 331H62Q67 385 98 425T180 486T292 508Q398 508 459 455T520 305V0H411L399
80Q377 40 338 14T236 -12ZM265 88Q320 88 350 124T389 213H280Q229 213 207 195T185 149Q185 120 207 104T265 88ZM290 547Q244 547 211 577T177 659Q177 711 210 741T290 771Q338 771 371 741T404 659Q404 607 371 577T290 547ZM290 605Q312 605 327 620T343
659Q343 684 328 698T290 713Q269 713 254 699T238 659Q238 635 253 620T290 605Z" />
<glyph unicode="&#xe6;" glyph-name="ae" horiz-adv-x="941" d="M245 -12Q182 -12 139 8T73 63T50 139Q50 209 102 252T262 296H395V305Q395 356 367 380T297 404Q260 404 232 386T197 333H72Q77 386 108 425T188 486T297 508Q356 508 402 490T476 436Q509 470
554 489T652 508Q725 508 780 476T867 389T898 264Q898 254 898 242T896 216H526Q531 157 567 125T651 93Q694 93 721 114T762 170H889Q876 118 843 77T762 12T652 -12Q587 -12 534 15T446 90Q416 46 368 17T245 -12ZM528 296H769Q765 347 733 375T653 404Q608
404 573 377T528 296ZM263 88Q314 88 347 123T390 207V216H278Q229 216 207 198T185 152Q185 123 206 106T263 88Z" />
<glyph unicode="&#xe7;" glyph-name="ccedilla" horiz-adv-x="600" d="M308 -12Q232 -12 174 21T83 113T49 248Q49 324 82 383T174 475T308 508Q403 508 468 459T551 322H416Q406 358 377 378T307 399Q254 399 217 359T180 248Q180 177 217 137T307 97Q347 97
376 117T416 174H551Q533 90 468 39T308 -12ZM218 -266V-192H330Q383 -192 383 -156Q383 -121 330 -121H269V4H349V-53Q383 -52 412 -63T460 -97T479 -158Q479 -212 440 -239T349 -266H218Z" />
<glyph unicode="&#xe8;" glyph-name="egrave" horiz-adv-x="598" d="M306 -12Q231 -12 173 20T82 110T49 244Q49 321 81 381T171 474T307 508Q380 508 436 476T523 389T555 265Q555 254 555 242T553 217H176Q180 159 216 126T305 93Q344 93 370 110T410 156H540Q526
109 494 71T414 10T306 -12ZM307 404Q260 404 224 378T178 297H425Q422 346 389 375T307 404ZM355 536L129 644V748L355 626V536Z" />
<glyph unicode="&#xe9;" glyph-name="eacute" horiz-adv-x="598" d="M306 -12Q231 -12 173 20T82 110T49 244Q49 321 81 381T171 474T307 508Q380 508 436 476T523 389T555 265Q555 254 555 242T553 217H176Q180 159 216 126T305 93Q344 93 370 110T410 156H540Q526
109 494 71T414 10T306 -12ZM307 404Q260 404 224 378T178 297H425Q422 346 389 375T307 404ZM271 536V626L497 748V644L271 536Z" />
<glyph unicode="&#xea;" glyph-name="ecircumflex" horiz-adv-x="598" d="M306 -12Q231 -12 173 20T82 110T49 244Q49 321 81 381T171 474T307 508Q380 508 436 476T523 389T555 265Q555 254 555 242T553 217H176Q180 159 216 126T305 93Q344 93 370 110T410 156H540Q526
109 494 71T414 10T306 -12ZM307 404Q260 404 224 378T178 297H425Q422 346 389 375T307 404ZM159 543V635L305 715L451 635V543L305 625L159 543Z" />
<glyph unicode="&#xeb;" glyph-name="edieresis" horiz-adv-x="598" d="M306 -12Q231 -12 173 20T82 110T49 244Q49 321 81 381T171 474T307 508Q380 508 436 476T523 389T555 265Q555 254 555 242T553 217H176Q180 159 216 126T305 93Q344 93 370 110T410 156H540Q526
109 494 71T414 10T306 -12ZM307 404Q260 404 224 378T178 297H425Q422 346 389 375T307 404ZM395 564Q369 564 351 582T333 626Q333 652 351 670T395 688Q421 688 438 670T456 626Q456 600 439 582T395 564ZM214 564Q188 564 171 582T153 626Q153 652 170 670T214
688Q240 688 258 670T276 626Q276 600 258 582T214 564Z" />
<glyph unicode="&#xec;" glyph-name="igrave" horiz-adv-x="259" d="M65 0V496H193V0H65ZM436 536L210 644V748L436 626V536Z" />
<glyph unicode="&#xed;" glyph-name="iacute" horiz-adv-x="259" d="M65 0V496H193V0H65ZM96 536V626L322 748V644L96 536Z" />
<glyph unicode="&#xee;" glyph-name="icircumflex" horiz-adv-x="259" d="M65 0V496H193V0H65ZM240 543V635L386 715L532 635V543L386 625L240 543Z" />
<glyph unicode="&#xef;" glyph-name="idieresis" horiz-adv-x="259" d="M65 0V496H193V0H65ZM476 564Q450 564 432 582T414 626Q414 652 432 670T476 688Q502 688 519 670T537 626Q537 600 520 582T476 564ZM295 564Q269 564 252 582T234 626Q234 652 251 670T295
688Q321 688 339 670T357 626Q357 600 339 582T295 564Z" />
<glyph unicode="&#xf0;" glyph-name="eth" horiz-adv-x="645" d="M319 -12Q240 -12 179 22T84 115T49 246Q49 320 83 378T176 469T310 503Q350 503 386 492T454 456Q431 518 390 578L264 537V614L341 639Q312 672 279 700H400Q417 685 433 669L555 709V632L485
609Q541 534 568 451T596 289Q596 197 559 130T459 25T319 -12ZM323 97Q361 97 393 115T445 166T465 246Q465 292 446 325T394 376T323 394Q285 394 253 376T200 325T180 246Q180 200 200 167T252 115T323 97Z" />
<glyph unicode="&#xf1;" glyph-name="ntilde" horiz-adv-x="608" d="M65 0V496H178L188 412Q211 456 254 482T357 508Q449 508 500 450T551 280V0H423V268Q423 332 397 366T316 400Q262 400 228 362T193 256V0H65ZM386 548Q358 548 338 559T301 582T264 594Q227
594 220 549H152Q162 613 192 643T269 673Q297 673 317 662T354 639T392 627Q409 627 420 638T435 672H504Q494 608 463 578T386 548Z" />
<glyph unicode="&#xf2;" glyph-name="ograve" horiz-adv-x="606" d="M303 -12Q231 -12 174 21T83 112T49 248Q49 325 83 383T174 475T304 508Q375 508 432 475T523 384T557 248Q557 171 524 113T432 21T303 -12ZM303 99Q353 99 390 136T427 248Q427 322 390 359T304
397Q253 397 217 360T180 248Q180 174 216 137T303 99ZM354 536L128 644V748L354 626V536Z" />
<glyph unicode="&#xf3;" glyph-name="oacute" horiz-adv-x="606" d="M303 -12Q231 -12 174 21T83 112T49 248Q49 325 83 383T174 475T304 508Q375 508 432 475T523 384T557 248Q557 171 524 113T432 21T303 -12ZM303 99Q353 99 390 136T427 248Q427 322 390 359T304
397Q253 397 217 360T180 248Q180 174 216 137T303 99ZM270 536V626L496 748V644L270 536Z" />
<glyph unicode="&#xf4;" glyph-name="ocircumflex" horiz-adv-x="606" d="M303 -12Q231 -12 174 21T83 112T49 248Q49 325 83 383T174 475T304 508Q375 508 432 475T523 384T557 248Q557 171 524 113T432 21T303 -12ZM303 99Q353 99 390 136T427 248Q427 322 390
359T304 397Q253 397 217 360T180 248Q180 174 216 137T303 99ZM158 543V635L304 715L450 635V543L304 625L158 543Z" />
<glyph unicode="&#xf5;" glyph-name="otilde" horiz-adv-x="606" d="M303 -12Q231 -12 174 21T83 112T49 248Q49 325 83 383T174 475T304 508Q375 508 432 475T523 384T557 248Q557 171 524 113T432 21T303 -12ZM303 99Q353 99 390 136T427 248Q427 322 390 359T304
397Q253 397 217 360T180 248Q180 174 216 137T303 99ZM362 548Q334 548 314 559T277 582T240 594Q203 594 196 549H128Q138 613 168 643T245 673Q273 673 293 662T330 639T368 627Q385 627 396 638T411 672H480Q470 608 439 578T362 548Z" />
<glyph unicode="&#xf6;" glyph-name="odieresis" horiz-adv-x="606" d="M303 -12Q231 -12 174 21T83 112T49 248Q49 325 83 383T174 475T304 508Q375 508 432 475T523 384T557 248Q557 171 524 113T432 21T303 -12ZM303 99Q353 99 390 136T427 248Q427 322 390
359T304 397Q253 397 217 360T180 248Q180 174 216 137T303 99ZM394 564Q368 564 350 582T332 626Q332 652 350 670T394 688Q420 688 437 670T455 626Q455 600 438 582T394 564ZM213 564Q187 564 170 582T152 626Q152 652 169 670T213 688Q239 688 257 670T275
626Q275 600 257 582T213 564Z" />
<glyph unicode="&#xf7;" glyph-name="divide" horiz-adv-x="540" d="M270 392Q235 392 213 414T190 467Q190 499 212 520T270 542Q305 542 327 521T350 467Q350 436 328 414T270 392ZM55 236V343H485V236H55ZM270 37Q235 37 213 59T190 112Q190 144 212 166T270
188Q305 188 327 166T350 112Q350 81 328 59T270 37Z" />
<glyph unicode="&#xf8;" glyph-name="oslash" horiz-adv-x="588" d="M30 0L97 78Q70 111 55 154T40 248Q40 325 73 383T165 475T294 508Q372 508 434 469L457 496H558L491 418Q518 385 533 342T548 248Q548 171 514 113T423 21T293 -12Q216 -12 154 27L131 0H30ZM162
248Q162 203 176 169L364 388Q333 408 294 408Q241 408 202 368T162 248ZM293 88Q347 88 386 128T426 248Q426 292 412 327L224 108Q254 88 293 88Z" />
<glyph unicode="&#xf9;" glyph-name="ugrave" horiz-adv-x="608" d="M251 -12Q158 -12 108 46T57 216V496H184V228Q184 164 210 130T292 96Q345 96 379 134T414 240V496H542V0H429L419 84Q396 40 353 14T251 -12ZM348 536L122 644V748L348 626V536Z" />
<glyph unicode="&#xfa;" glyph-name="uacute" horiz-adv-x="608" d="M251 -12Q158 -12 108 46T57 216V496H184V228Q184 164 210 130T292 96Q345 96 379 134T414 240V496H542V0H429L419 84Q396 40 353 14T251 -12ZM248 536V626L474 748V644L248 536Z" />
<glyph unicode="&#xfb;" glyph-name="ucircumflex" horiz-adv-x="608" d="M251 -12Q158 -12 108 46T57 216V496H184V228Q184 164 210 130T292 96Q345 96 379 134T414 240V496H542V0H429L419 84Q396 40 353 14T251 -12ZM152 543V635L298 715L444 635V543L298 625L152 543Z" />
<glyph unicode="&#xfc;" glyph-name="udieresis" horiz-adv-x="608" d="M251 -12Q158 -12 108 46T57 216V496H184V228Q184 164 210 130T292 96Q345 96 379 134T414 240V496H542V0H429L419 84Q396 40 353 14T251 -12ZM388 564Q362 564 344 582T326 626Q326 652
344 670T388 688Q414 688 432 670T450 626Q450 600 432 582T388 564ZM208 564Q182 564 164 582T146 626Q146 652 164 670T208 688Q234 688 252 670T270 626Q270 600 252 582T208 564Z" />
<glyph unicode="&#xfd;" glyph-name="yacute" horiz-adv-x="597" d="M127 -220L242 33H212L19 496H158L297 147L442 496H578L263 -220H127ZM253 536V626L479 748V644L253 536Z" />
<glyph unicode="&#xfe;" glyph-name="thorn" horiz-adv-x="652" d="M65 -220V720H193V425Q217 458 256 483T359 508Q429 508 484 474T571 381T603 247Q603 172 571 114T484 22T359 -12Q303 -12 261 9T193 68V-220H65ZM332 100Q393 100 433 141T473 247Q473 312
433 354T332 396Q270 396 231 355T191 248Q191 183 230 142T332 100Z" />
<glyph unicode="&#xff;" glyph-name="ydieresis" horiz-adv-x="597" d="M127 -220L242 33H212L19 496H158L297 147L442 496H578L263 -220H127ZM393 564Q367 564 349 582T331 626Q331 652 349 670T393 688Q419 688 437 670T455 626Q455 600 437 582T393 564ZM213
564Q187 564 169 582T151 626Q151 652 169 670T213 688Q239 688 257 670T275 626Q275 600 257 582T213 564Z" />
<glyph unicode="&#x2013;" glyph-name="endash" horiz-adv-x="648" d="M54 236V343H594V236H54Z" />
<glyph unicode="&#x2014;" glyph-name="emdash" horiz-adv-x="868" d="M54 236V343H814V236H54Z" />
<glyph unicode="&#x2018;" glyph-name="quoteleft" horiz-adv-x="264" d="M33 454L135 700H222L168 454H33Z" />
<glyph unicode="&#x2019;" glyph-name="quoteright" horiz-adv-x="264" d="M41 454L96 700H231L129 454H41Z" />
<glyph unicode="&#x201a;" glyph-name="quotesinglbase" horiz-adv-x="240" d="M14 -113L69 133H204L102 -113H14Z" />
<glyph unicode="&#x201c;" glyph-name="quotedblleft" horiz-adv-x="456" d="M33 454L135 700H222L168 454H33ZM226 454L328 700H415L360 454H226Z" />
<glyph unicode="&#x201d;" glyph-name="quotedblright" horiz-adv-x="456" d="M233 455L288 701H423L321 455H233ZM41 455L96 701H231L129 455H41Z" />
<glyph unicode="&#x201e;" glyph-name="quotedblbase" horiz-adv-x="432" d="M14 -113L69 133H204L102 -113H14ZM207 -113L262 133H396L295 -113H207Z" />
<glyph unicode="&#x2022;" glyph-name="bullet" horiz-adv-x="380" d="M189 198Q152 198 122 216T73 264T54 333Q54 371 72 402T121 451T189 469Q228 469 258 451T307 402T325 333Q325 295 307 265T259 216T189 198Z" />
<glyph unicode="&#x2039;" glyph-name="guilsinglleft" horiz-adv-x="303" d="M133 120L42 295L133 470H253L160 295L253 120H133Z" />
<glyph unicode="&#x203a;" glyph-name="guilsinglright" horiz-adv-x="303" d="M50 120L143 295L50 470H171L261 295L171 120H50Z" />
</font>
</defs>
</svg>
